<?xml version="1.0" standalone="no"?>
<!DOCTYPE svg PUBLIC "-//W3C//DTD SVG 1.1//EN" "http://www.w3.org/Graphics/SVG/1.1/DTD/svg11.dtd" >
<svg xmlns="http://www.w3.org/2000/svg">
<metadata></metadata>
<defs>
<font id="lakeshoredriveregular" horiz-adv-x="500" >
<font-face units-per-em="1000" ascent="800" descent="-200" />
<missing-glyph horiz-adv-x="222" />
<glyph horiz-adv-x="1000" />
<glyph horiz-adv-x="1000" />
<glyph unicode="&#xd;" horiz-adv-x="1000" />
<glyph unicode=" "  horiz-adv-x="222" />
<glyph unicode="&#x09;" horiz-adv-x="222" />
<glyph unicode="&#xa0;" horiz-adv-x="222" />
<glyph unicode="!" horiz-adv-x="279" d="M233 52q0 -26 -27.5 -44.5t-65.5 -18.5q-39 0 -66.5 18.5t-27.5 44.5t27.5 44.5t66.5 18.5q38 0 65.5 -18.5t27.5 -44.5v0zM266 657l-72 -515h-109l-72 515h253v0z" />
<glyph unicode="&#x22;" horiz-adv-x="315" d="M303 687l-44 -163h-67l-36 133l-6 -20.5t-12 -45.5q-7 -25 -13 -46l-6 -21h-67l-44 163h295v0z" />
<glyph unicode="#" />
<glyph unicode="$" horiz-adv-x="397" d="M362 140q-2 -63 -50 -96t-105 -41q-2 0 -4.5 -0.5t-4.5 -0.5v-175h-54v173h-55.5h-55.5v107h55.5h55.5v36q-1 0 -1.5 0.5t-1.5 0.5q-52 17 -96 57t-44 98v3.5t1 2.5v3.5v2.5q5 56 47.5 86.5t94.5 38.5v88h54v-84h95v-107h-95v-31q3 0 5.5 -1t5.5 -1q57 -13 105 -52.5 t48 -103.5v-0.5v-1.5v-1.5v-0.5v0z" />
<glyph unicode="%" />
<glyph unicode="&#x26;" horiz-adv-x="755" d="M721 414h-105q24 -32 37.5 -71t13.5 -83q0 -22 -4 -43.5t-12 -41.5q-29 -75 -107.5 -125t-196.5 -50t-214.5 67.5t-98.5 163.5q2 70 29 108.5t74 66.5q-15 22 -22 45.5t-7 47.5q0 65 46.5 116.5t119.5 51.5h152v-107h-70h-4h-4q-27 -3 -49 -18t-22 -44v0v0v-1v0 q0 -22 19.5 -35t43.5 -18q8 -2 16.5 -3t16.5 -1l1 -107q-36 -1 -68.5 -14.5t-47.5 -50.5q-5 -13 -8 -26t-2 -25q0 -50 41.5 -80t97.5 -30q69 0 121 38.5t52 114.5q0 70 -48.5 112t-114.5 42v107h9v0h1h314v-107v0z" />
<glyph unicode="'" horiz-adv-x="171" d="M163 687l-44 -163h-67l-44 163h155v0z" />
<glyph unicode="(" horiz-adv-x="317" d="M303 -250q-111 2 -175 83t-91 178q-12 42 -17.5 83.5t-5.5 75.5v160q0 34 5.5 75.5t17.5 83.5q28 98 92 179t174 82v-100q-18 -2 -30 -23t-19 -46q-5 -18 -7 -35t-2 -26v-540q0 -8 2 -25t7 -35q7 -25 19 -46t30 -23v-101v0z" />
<glyph unicode=")" horiz-adv-x="317" d="M13 -250v100q18 3 30 24t19 46q5 18 7 35t2 26v539q0 9 -2 26t-7 35q-7 25 -19 46t-30 23v100q110 -1 174 -82t92 -179q12 -42 17.5 -83.5t5.5 -75.5v-160q0 -34 -5.5 -75.5t-17.5 -83.5q-27 -97 -91 -178t-175 -82v-1z" />
<glyph unicode="*" horiz-adv-x="245" d="M233 535l-35 -61l-40 22v-46h-71v47l-40 -23l-36 61l40 23l-40 23l36 62l40 -23v46h71v-46l40 23l35 -62l-40 -23l40 -23v0z" />
<glyph unicode="+" />
<glyph unicode="," horiz-adv-x="209" d="M194 52q0 -9 -4 -17t-10 -16l-103 -124l-67 80l26 31q-13 8 -21 20.5t-8 25.5q0 26 27.5 44.5t65.5 18.5q39 0 66.5 -18.5t27.5 -44.5v0z" />
<glyph unicode="-" horiz-adv-x="236" d="M226 241h-215v107h215v-107v0z" />
<glyph unicode="." horiz-adv-x="206" d="M200 52q0 -26 -27.5 -44.5t-65.5 -18.5q-39 0 -66.5 18.5t-27.5 44.5t27.5 44.5t66.5 18.5q38 0 65.5 -18.5t27.5 -44.5v0z" />
<glyph unicode="/" />
<glyph unicode="0" horiz-adv-x="623" d="M569 220q0 -90 -67.5 -143.5t-148.5 -69.5q-17 -4 -34 -5.5t-33 -1.5t-32.5 1.5t-32.5 4.5q-82 16 -150.5 70t-68.5 144t68.5 144t150.5 70q16 3 32.5 4.5t32.5 1.5t33 -1.5t34 -5.5q81 -16 148.5 -69.5t67.5 -143.5v0zM350 220q0 9 -1.5 21.5t-5.5 25.5q-6 25 -20 45.5 t-37 20.5t-37 -20.5t-21 -44.5q-4 -13 -5.5 -26t-1.5 -22t1.5 -22t5.5 -26q7 -24 21 -44.5t37 -20.5t37 20.5t20 45.5q4 13 5.5 25.5t1.5 21.5v0z" />
<glyph unicode="1" horiz-adv-x="490" d="M440 0h-437v107h108v131l-68 -34l-48 96l338 169v-362h107v-107v0z" />
<glyph unicode="2" horiz-adv-x="486" d="M442 0h-442v100q52 30 103.5 60t102.5 61q14 8 26 23.5t16 32.5q1 4 1.5 7.5t0.5 7.5q0 8 -2 14.5t-7 12.5q-4 5 -8 8t-9 5q-2 1 -5 1.5t-6 0.5q-12 0 -21 -9.5t-10 -25.5h-181q1 57 45.5 89.5t97.5 44.5q17 3 33 5t31 2q16 0 35 -1.5t39 -4.5q26 -4 50.5 -11.5 t42.5 -19.5q32 -22 48.5 -52.5t16.5 -68.5q0 -51 -31 -79t-78 -52q-6 -3 -12.5 -6t-12.5 -6q-7 -4 -18 -7.5t-23 -7.5t-23.5 -8.5t-18.5 -8.5h219v-107v0z" />
<glyph unicode="3" horiz-adv-x="595" d="M466 -167q-40 -28 -91.5 -43t-104.5 -15h-6h-7q-44 2 -86.5 14t-77.5 36q-40 25 -63.5 62t-24.5 81q-1 13 -1 26.5v26.5h199q0 -3 0.5 -6t0.5 -6q1 -6 1.5 -10.5t0.5 -9.5q3 -24 9 -46t21 -41q9 -11 18 -15.5t18 -4.5q11 0 21 6.5t19 18.5q13 18 19 41t6 48v4v4 q-1 21 -7.5 41t-17.5 36q-8 12 -18 19t-21 7h-56v107h38q28 0 39.5 17.5t12.5 39.5v2.5v2.5v2.5v2.5q-1 12 -4 23.5t-8 17.5q-4 7 -12.5 10t-18.5 2h-2.5h-2.5q-13 -1 -24 -8.5t-12 -20.5h-163v1.5v1.5v0.5v1.5q0 49 40.5 78t88.5 41q22 6 42.5 8.5t37.5 2.5q7 0 13.5 -0.5 t13.5 -0.5q33 -3 65.5 -13t60.5 -28q36 -24 55.5 -57.5t18.5 -68.5q0 -28 -12 -55t-38 -50q53 -32 81 -78.5t28 -95.5v-6v-5q-3 -40 -25 -78.5t-64 -69.5v-1z" />
<glyph unicode="4" horiz-adv-x="645" d="M599 -107h-116v-119h-222v119h-260l338 547h144v-440h116v-107v0zM261 0v104l-70 -104h70v0z" />
<glyph unicode="5" horiz-adv-x="601" d="M548 -6q0 -89 -67.5 -142.5t-148.5 -69.5q-17 -4 -34 -5.5t-33 -1.5q-18 0 -37 2t-38 6q-71 16 -130.5 61t-60.5 124l-2 53h199q0 -3 0.5 -6t0.5 -6q1 -6 1.5 -10.5t0.5 -9.5q3 -24 9 -46t21 -41q9 -11 18 -15.5t18 -4.5q11 0 21 6.5t19 18.5q13 18 19 41t6 48v4v4 q-1 21 -7.5 41t-17.5 36q-7 10 -17 18t-23 8h-240v333h434v-107h-228v-119h8.5h8.5h8.5h8.5q56 0 106 -16t88 -43q41 -30 65 -71.5t24 -88.5v-1z" />
<glyph unicode="6" horiz-adv-x="621" d="M567 230v-9.5t-1 -9.5q-3 -44 -22 -84.5t-57 -67.5q-40 -29 -89 -44t-99 -15q-54 0 -105.5 17.5t-93.5 52.5q-51 43 -74.5 105t-23.5 129v9.5v9.5q3 59 23 115.5t54 99.5q39 49 86 75.5t95 38.5q40 10 78.5 12.5t72.5 2.5h60v-107h-60q-68 0 -121 -30.5t-79 -96.5 q20 3 39.5 5t38.5 2q53 0 104 -14t94 -45q42 -30 61 -66.5t19 -84.5v0zM293 107q32 0 48 35.5t16 78.5q0 42 -16 77t-48 35q-31 0 -47 -35.5t-16 -78.5q0 -42 16 -77t47 -35v0z" />
<glyph unicode="7" horiz-adv-x="583" d="M549 440l-290 -666h-233l253 559h-282v107h552v0z" />
<glyph unicode="8" horiz-adv-x="622" d="M479 59q-41 -30 -91.5 -44.5t-103.5 -14.5h-6h-6q-49 2 -96 16.5t-85 42.5q-42 30 -64 69.5t-25 80.5v4.5v5.5q0 49 26.5 95t78.5 78q-24 20 -36.5 44t-15.5 48q-1 4 -1 7.5v6.5q0 36 20 69.5t57 57.5q30 20 70 31t84 11q9 0 18.5 -0.5t18.5 -1.5q31 -4 61 -13.5 t57 -26.5q37 -23 57 -56.5t20 -69.5q-1 -28 -14 -56t-40 -51q52 -32 78.5 -78t26.5 -95q0 -43 -22 -85t-67 -75v0zM285 107q32 0 47.5 34.5t16.5 75.5v1.5v1.5q0 43 -16.5 78t-48.5 35q-22 0 -36 -20t-21 -44q-3 -14 -5 -27t-2 -22t2 -22t5 -26q7 -24 21 -44.5t37 -20.5v0z M285 440q21 0 31.5 19t10.5 42v1.5v1.5q-1 21 -11.5 38.5t-30.5 17.5q-21 0 -31.5 -19t-10.5 -42v-1.5v-1.5q1 -21 11.5 -38.5t30.5 -17.5v0z" />
<glyph unicode="9" horiz-adv-x="621" d="M490 -98q-39 -48 -86 -74.5t-95 -38.5q-40 -10 -78.5 -12.5t-72.5 -2.5l-59 -1v107h59q68 1 121 31.5t79 95.5q-19 -3 -38.5 -5t-39.5 -2q-53 0 -104 14t-94 45q-41 30 -60.5 66.5t-19.5 84.5v9.5t1 9.5q3 44 22.5 84.5t56.5 67.5q41 29 89.5 44t98.5 15 q54 0 105.5 -17.5t93.5 -52.5q51 -43 74.5 -105t23.5 -129v-9.5v-9.5q-3 -59 -23 -115t-54 -99v-1zM276 107q32 0 47.5 35.5t15.5 78.5q0 42 -15.5 77t-47.5 35t-48 -35.5t-16 -78.5q0 -42 16.5 -77t47.5 -35v0z" />
<glyph unicode=":" horiz-adv-x="206" d="M200 52q0 -26 -27.5 -44.5t-65.5 -18.5q-39 0 -66.5 18.5t-27.5 44.5t27.5 44.5t66.5 18.5q38 0 65.5 -18.5t27.5 -44.5v0zM200 282q0 -26 -27.5 -45t-65.5 -19q-39 0 -66.5 19t-27.5 45t27.5 44.5t66.5 18.5q38 0 65.5 -18.5t27.5 -44.5v0z" />
<glyph unicode=";" horiz-adv-x="209" d="M194 52q0 -9 -4 -17t-10 -16l-103 -124l-67 80l26 31q-13 8 -21 20.5t-8 25.5q0 26 27.5 44.5t65.5 18.5q39 0 66.5 -18.5t27.5 -44.5v0zM200 282q0 -26 -27.5 -45t-65.5 -19q-39 0 -66.5 19t-27.5 45t27.5 44.5t66.5 18.5q38 0 65.5 -18.5t27.5 -44.5v0z" />
<glyph unicode="&#x3c;" />
<glyph unicode="=" />
<glyph unicode="&#x3e;" />
<glyph unicode="?" horiz-adv-x="585" d="M310 52q0 -26 -27.5 -44.5t-65.5 -18.5q-39 0 -66.5 18.5t-27.5 44.5t27.5 44.5t66.5 18.5q38 0 65.5 -18.5t27.5 -44.5v0zM521 352q-27 -52 -84 -92.5t-143 -51.5q-14 -2 -20.5 -13.5t-8.5 -25.5q-2 -7 -2.5 -13t-1.5 -11h-106v5t-1 9q-2 19 -3.5 37t-1.5 34 q0 49 22 89.5t93 74.5l4 2t3 2q23 13 41.5 35t17.5 50v3.5v3.5t-0.5 3.5t-0.5 3.5q-5 28 -26.5 41t-46.5 13h-4h-5q-13 -2 -25 -7t-22 -14q-13 -12 -16.5 -28.5t-3.5 -33.5v-10t1 -10v-10v-10h-176v15.5t1 14.5v15.5v14.5q2 71 53 111.5t112 56.5q23 6 44.5 8.5t40.5 2.5 q95 0 158 -31.5t95 -78.5q18 -25 26.5 -53.5t8.5 -57.5q0 -24 -6 -47.5t-17 -46.5v0z" />
<glyph unicode="@" />
<glyph unicode="A" horiz-adv-x="643" d="M584 0h-229v333h-124v-333h-231q0 47 0.5 94t0.5 94t0.5 94t0.5 94q1 119 86 205t205 86q119 0 205 -85.5t86 -206.5v-375v0zM355 440v58q0 26 -18 44t-44 18q-25 0 -43.5 -18t-18.5 -44v-58h124v0z" />
<glyph unicode="B" horiz-adv-x="651" d="M604 220q0 -91 -64.5 -155.5t-155.5 -64.5h-383v667h363q50 0 88.5 -25.5t58.5 -63.5q10 -19 15 -39t5 -41q0 -6 -0.5 -12t-1.5 -11q-2 -18 -9 -35.5t-18 -33.5q47 -30 74.5 -80t27.5 -106v0zM346 157v63.5v62.5q0 23 -16 36.5t-37 13.5h-78v-226h81q21 0 35.5 14.5 t14.5 35.5v0zM316 500q0 23 -12.5 41.5t-38.5 18.5h-50v-120h51q25 0 37.5 19t12.5 41v0z" />
<glyph unicode="C" horiz-adv-x="596" d="M543 0h-259q-116 0 -199.5 83t-83.5 200v118q0 117 83.5 200.5t200.5 83.5h10.5t10.5 -1q88 -7 161.5 -66t74.5 -155v-54h-199v110q0 24 -17 41.5t-41 17.5q-25 0 -42 -17.5t-17 -41.5v-354q0 -24 17 -41t41 -17h259v-107v0z" />
<glyph unicode="D" horiz-adv-x="618" d="M566 283q0 -115 -82.5 -198.5t-198.5 -84.5h-1.5h-0.5h-284v667h284q116 0 199.5 -83.5t83.5 -200.5v-49.5v-50.5v0zM341 165v168v168q0 24 -17 41.5t-41 17.5h-59v-453h59q24 0 41 17t17 41v0z" />
<glyph unicode="E" horiz-adv-x="605" d="M551 0h-329q-91 0 -156 64.5t-65 155.5q0 56 28 106t75 80q-15 23 -22.5 46.5t-6.5 47.5q0 20 5 39.5t14 37.5q21 39 59.5 64.5t88.5 25.5h309v-107h-193q-25 0 -37.5 -18.5t-12.5 -41.5q0 -22 12.5 -41t37.5 -19h193v-107h-193q-49 0 -73.5 -35t-24.5 -78t24.5 -78 t73.5 -35h193v-107v0z" />
<glyph unicode="F" horiz-adv-x="613" d="M560 333h-216v-212q0 -49 -35.5 -85t-85.5 -36h-206v107h103v226h-118v107h118v227h426v-107h-202v-120h216v-107v0z" />
<glyph unicode="G" horiz-adv-x="610" d="M551 440h-212v79q0 24 -17.5 41.5t-41.5 17.5t-41 -17.5t-17 -41.5v-354q0 -24 17 -41t41 -17t41.5 17t17.5 41v209h211v-479q0 -49 -35 -84.5t-85 -35.5l-207 -1v107h117v125q-14 -3 -29 -4.5t-31 -1.5q-117 0 -199.5 83t-82.5 200l-1 118q1 117 83.5 200.5t199.5 83.5 q11 0 22.5 -0.5t23.5 -2.5q85 -10 155.5 -59.5t69.5 -146.5v-36v0z" />
<glyph unicode="H" horiz-adv-x="609" d="M556 0h-226v333h-103v-333h-225v667h225v-227h103v227h226v-667v0z" />
<glyph unicode="I" horiz-adv-x="285" d="M224 0h-226v667h226v-667v0z" />
<glyph unicode="J" horiz-adv-x="379" d="M314 -106q0 -49 -35.5 -84t-85.5 -35l-206 -1v107h103v679h-90v107h314v-773v0z" />
<glyph unicode="K" horiz-adv-x="717" d="M664 0h-205q-53 0 -91.5 38t-38.5 92v203h-105v-333h-222v665h222v-187l231 187h170l-278 -225h82q53 0 91.5 -38t38.5 -92v-203h105v-107v0z" />
<glyph unicode="L" horiz-adv-x="566" d="M514 0h-514v665h222v-558h292v-107v0z" />
<glyph unicode="M" horiz-adv-x="860" d="M802 0h-226v135v138v138v135q0 16 -9.5 24t-21.5 8t-21.5 -8t-9.5 -24v-546h-225v546q0 16 -10 24t-22 8h-1.5h-1.5q-10 -1 -19 -9t-9 -23v-546h-226v429q0 78 39.5 136.5t99.5 89.5q28 14 58.5 21.5t61.5 7.5q9 0 18 -0.5t18 -2.5q28 -3 54.5 -13.5t51.5 -27.5 q28 19 59 30t63 13q5 1 10.5 1h10.5q32 0 62 -7.5t57 -21.5q60 -30 99.5 -88.5t39.5 -137.5v-429v0z" />
<glyph unicode="N" horiz-adv-x="611" d="M556 0h-226v273l-103 124v-397h-225v667h142l186 -226v226h226v-667v0z" />
<glyph unicode="O" horiz-adv-x="624" d="M566 265q0 -116 -83 -199t-200 -83t-200 83t-83 199l-1 136q1 117 84 200.5t200 83.5q116 0 199.5 -83t83.5 -201v-136v0zM341 147v372q0 24 -17 41.5t-41 17.5t-41.5 -17.5t-17.5 -41.5v-372q0 -24 17.5 -41t41.5 -17t41 17t17 41v0z" />
<glyph unicode="P" horiz-adv-x="603" d="M560 447q0 -91 -64.5 -155.5t-155.5 -64.5h-111v-227h-227v667h84.5h84.5h84.5h84.5q91 0 155.5 -64.5t64.5 -155.5v0zM316 384v63.5v62.5q0 20 -15 35t-35 15h-37v-226h37q20 0 35 14.5t15 35.5v0z" />
<glyph unicode="Q" horiz-adv-x="624" d="M569 265q0 -97 -59.5 -173t-150.5 -99v-11h112v-107h-139q-49 1 -83.5 35t-36.5 83q-91 24 -150.5 99.5t-59.5 172.5v136q0 117 83.5 200.5t200.5 83.5q116 0 199.5 -83t83.5 -201v-136v0zM344 147v372q0 24 -17 41.5t-41 17.5t-41.5 -17.5t-17.5 -41.5v-372 q0 -24 17.5 -41t41.5 -17t41 17t17 41v0z" />
<glyph unicode="R" horiz-adv-x="655" d="M607 0h-164q-54 0 -92 38.5t-38 91.5v97h-84v-227h-228v667h339q90 0 155 -64.5t65 -155.5q0 -43 -15.5 -81t-42.5 -68l0.5 -0.5t1.5 -0.5l0.5 -0.5l0.5 -0.5q17 -18 27.5 -41.5t10.5 -50.5v-97h64v-107v0zM315 384v63.5v62.5q0 20 -14.5 35t-35.5 15h-36v-226h40 q20 2 33 16.5t13 33.5v0z" />
<glyph unicode="S" horiz-adv-x="599" d="M524 281q10 -16 15.5 -33.5t7.5 -35.5q1 -5 1.5 -11t0.5 -12q0 -28 -8.5 -54t-26.5 -50q-32 -44 -97.5 -73t-164.5 -29q-20 0 -42 2.5t-45 8.5q-61 14 -111.5 51.5t-52.5 102.5v53h176v-8.5v-8.5q-1 -5 -1 -9v-9q0 -16 3.5 -31t16.5 -26q10 -9 24 -14t29 -6h3h4 q23 0 43 8t32 24q5 6 7.5 13t2.5 14v4t-1 4q0 2 -1 4l-2 4q-7 15 -26 28t-52 20q-70 16 -121 52.5t-82 77.5q-7 10 -13 19.5t-11 18.5q-11 21 -16.5 43.5t-5.5 44.5q0 29 10.5 57.5t31.5 53.5q34 39 94 63.5t147 24.5h188v-107h-188q-28 0 -46.5 -17.5t-20.5 -44.5v-2.5 v-2.5q0 -22 13 -35t37 -18q94 -17 156.5 -62t91.5 -97v0z" />
<glyph unicode="T" horiz-adv-x="512" d="M464 560h-119v-560h-226v560h-120v107h465v-107v0z" />
<glyph unicode="U" horiz-adv-x="641" d="M583 251q0 -122 -87 -195t-205 -73q-116 0 -203.5 72t-87.5 196v416h229v-516q0 -25 18.5 -43.5t43.5 -18.5q26 0 44.5 18.5t18.5 43.5v516h229v-416v0z" />
<glyph unicode="V" horiz-adv-x="631" d="M572 375q0 -84 -31.5 -152.5t-86.5 -118.5q-56 -51 -131.5 -78t-161.5 -27h-40.5h-40.5h-41.5h-39.5l-1 668h222v-558q60 10 94.5 45t34.5 114v399h223v-292v0z" />
<glyph unicode="W" horiz-adv-x="858" d="M800 238q0 -115 -80 -185t-179 -70q-37 0 -73 10.5t-69 32.5q-25 -17 -51.5 -26.5t-54.5 -13.5q-9 -2 -18 -2.5t-18 -0.5q-100 0 -179 70t-79 185l-1 428h226v-546q0 -16 10 -24t22 -7q12 0 21.5 7.5t9.5 23.5v546h225v-546q0 -16 10 -24t22 -7q11 0 20.5 7.5t9.5 23.5 v135v138v138v135h226v-428v0z" />
<glyph unicode="X" horiz-adv-x="641" d="M586 0h-229v271q0 26 -18 44t-44 18q-25 0 -44 -18t-19 -44v-271h-229v171q0 65 29.5 122t82.5 94q-53 37 -82.5 93t-29.5 122v65h229v-82.5v-82.5q0 -25 18.5 -43.5t43.5 -18.5q26 0 44.5 18.5t18.5 43.5v165h229v-65q0 -65 -29.5 -121.5t-82.5 -93.5q53 -37 82.5 -93.5 t29.5 -122.5v-171v0z" />
<glyph unicode="Y" horiz-adv-x="624" d="M566 -105q0 -49 -35 -84.5t-85 -35.5l-220 -1v107h116v107q-16 -3 -33 -4.5t-35 -1.5q-9 0 -17.5 0.5t-17.5 1.5q-45 4 -87 18.5t-73 39.5q-37 29 -58 73.5t-21 105.5l-1 446h226v-520q0 -24 17 -41t42 -17q23 0 40.5 16.5t17.5 40.5v521h224v-772v0z" />
<glyph unicode="Z" horiz-adv-x="703" d="M659 667l-288 -560h251v-107h-620l288 560h-224v107h593v0z" />
<glyph unicode="[" />
<glyph unicode="\" />
<glyph unicode="]" />
<glyph unicode="^" />
<glyph unicode="_" d="M506 -89h-505v87h505v-87v0z" />
<glyph unicode="`" horiz-adv-x="310" d="M248 750l-29 -68l-208 69l47 111l190 -112v0z" />
<glyph unicode="a" horiz-adv-x="789" d="M814 107q0 -44 -32 -75.5t-76 -31.5h-221q-21 0 -40.5 7t-34.5 20q-3 -1 -5.5 -2t-4.5 -2q-2 -2 -4.5 -3t-5.5 -2q-25 -9 -52 -13.5t-55 -4.5h-10.5t-10.5 1q-46 2 -91 17t-81 41q-41 30 -65 71.5t-24 89.5t24 89.5t65 71.5q36 26 81 41t91 18h10.5h10.5q21 0 42 -2.5 t40 -7.5v9h214v-332h235v0zM365 123v194q-16 8 -30.5 11.5t-28.5 2.5q-42 0 -64.5 -32t-22.5 -79q0 -46 22.5 -79t65.5 -32q13 0 27.5 3.5t30.5 10.5v0z" />
<glyph unicode="b" horiz-adv-x="799" d="M826 440q0 -44 -31.5 -75.5t-75.5 -31.5h-186q14 -18 23 -41t13 -47q2 -9 2.5 -17.5t0.5 -16.5v-6.5t-1 -7.5q-3 -44 -26.5 -86t-61.5 -70q-41 -30 -88 -43t-96 -15h-8h-8q-34 0 -67.5 4.5t-65.5 12.5q-34 7 -64 18.5t-59 27.5q-6 4 -12.5 7.5t-13.5 7.5v607h215v-235 q3 0 5.5 0.5t4.5 1.5q11 2 22 3.5t22 1.5h556v0zM357 211v8v8q-2 38 -18.5 70.5t-60.5 35.5q-16 -1 -32 -3.5t-30 -6.5v-228q13 -2 27 -4t28 -2q18 0 34.5 5.5t28.5 18.5q11 14 16.5 39.5t6.5 53.5v2.5v2.5v0z" />
<glyph unicode="c" horiz-adv-x="763" d="M786 107q-1 -44 -32.5 -75.5t-75.5 -31.5h-362h-8.5h-9.5q-52 2 -103.5 14t-96.5 42q-46 31 -71.5 73t-25.5 91t25.5 91t71.5 73q45 30 96.5 42.5t103.5 13.5h9.5h8.5q24 0 47 -4t44 -10v36l153 -1v-222h-91q-11 36 -40.5 65.5t-94.5 28.5q-46 0 -80 -32.5t-34 -80.5 q0 -46 32.5 -79t78.5 -34h2h453v0z" />
<glyph unicode="d" horiz-adv-x="815" d="M850 107q0 -44 -31.5 -75.5t-75.5 -31.5h-243q-22 0 -41.5 7.5t-35.5 20.5q-7 -3 -13.5 -6t-14.5 -5q-26 -8 -54 -12.5t-57 -4.5q-52 0 -101.5 14.5t-90.5 44.5t-65.5 71.5t-24.5 89.5t24.5 89.5t65.5 71.5q39 28 85 42.5t93 16.5h7.5h6.5q25 0 49 -3t47 -10v238h215 v-558h255v0zM380 125v190q-20 8 -38 12.5t-35 3.5q-42 0 -66.5 -28.5t-24.5 -82.5t24.5 -83t67.5 -28q16 0 34 4t38 12v0z" />
<glyph unicode="e" horiz-adv-x="694" d="M734 107q-1 -44 -32.5 -75.5t-75.5 -31.5h-310h-1q-61 0 -117 11t-107 48q-45 32 -67.5 74.5t-22.5 86.5t22.5 86.5t67.5 74.5q35 26 81 41.5t94 17.5h9.5h9.5q50 0 96 -14t83 -44q37 -31 56.5 -73t19.5 -89v-31.5v-32.5h-308q11 -25 32.5 -37t49.5 -12h420v0zM346 263 q-2 15 -6.5 27.5t-10.5 22.5q-7 9 -17.5 14t-21.5 6h-3.5h-2.5q-13 0 -24.5 -5t-18.5 -15t-11.5 -22.5t-6.5 -27.5h123v0z" />
<glyph unicode="f" horiz-adv-x="732" d="M761 471q-1 -43 -32.5 -75.5t-75.5 -32.5h-206q13 -7 24.5 -15.5t21.5 -19.5q31 -31 48.5 -71.5t17.5 -87.5v-144q0 -91 -65.5 -157t-158.5 -66t-159 66t-66 157v338h-110v108h110v26q0 93 66 159.5t158 66.5h108v-108h-79q-16 -4 -27 -17.5t-11 -30.5v-96h436v0zM424 -4 v228q0 20 -15 35t-35 15h-49v-278q0 -19 14.5 -34t34.5 -15t35 15t15 35v-1z" />
<glyph unicode="g" horiz-adv-x="747" d="M777 107q-1 -44 -32.5 -75.5t-75.5 -31.5h-110v-62q0 -37 -19.5 -69.5t-53.5 -54.5q-32 -22 -71 -32.5t-80 -10.5q-40 0 -78 11t-70 32q-35 23 -54.5 56.5t-19.5 69.5q0 22 8.5 44t24.5 43q-58 25 -101.5 75t-43.5 117q0 48 24 89.5t65 71.5q42 30 92 44.5t102 14.5 q19 0 37 -1.5t36 -5.5v7h202v-332h218v0zM357 -122v121q-29 1 -57 -3t-54 -20q-13 -9 -19.5 -18.5t-5.5 -19.5q0 -9 6 -18t19 -18q15 -10 33 -15.5t36 -7.5q5 0 10.5 -0.5t10.5 -0.5h10.5t10.5 1v-1zM357 116v206q-14 5 -27.5 7t-25.5 1q-44 0 -67 -29t-23 -82q0 -52 23 -82 t68 -29q12 0 25 2t27 6v0z" />
<glyph unicode="h" horiz-adv-x="698" d="M730 107q0 -44 -31.5 -75.5t-75.5 -31.5h-265v239q0 7 -0.5 15t-1.5 17q-2 14 -6.5 27t-13.5 22q-7 7 -16.5 10t-20.5 3q-5 0 -10 -0.5t-10 -1.5q-10 -2 -20 -5.5t-19 -6.5q-5 -2 -9 -3.5t-8 -3.5v-312h-222v665h222v-239q28 8 57 13t58 5q40 0 78 -9.5t71 -31.5 q38 -25 61.5 -63t23.5 -84v-149h158v0z" />
<glyph unicode="i" horiz-adv-x="370" d="M403 107q-1 -44 -32.5 -75.5t-75.5 -31.5h-174q-50 0 -85.5 35.5t-35.5 85.5v318h215v-332h188v0zM230 586q0 -32 -34 -55.5t-82 -23.5t-81.5 23.5t-33.5 55.5q0 33 33.5 56t81.5 23t82 -23t34 -56v0z" />
<glyph unicode="j" horiz-adv-x="611" d="M649 107q0 -44 -31.5 -75.5t-75.5 -31.5h-95v-62q0 -37 -19.5 -69.5t-53.5 -54.5q-32 -22 -71 -32.5t-80 -10.5h-6h-6q-37 2 -72.5 13t-64.5 30q-37 25 -55 57.5t-18 67.5q0 34 18.5 66.5t54.5 57.5q39 26 82 34.5t89 8.5v333h202v-332h202v0zM245 -122v121q-29 1 -57 -3 t-54 -20q-13 -9 -19.5 -18t-5.5 -19q0 -10 6 -19t19 -18q15 -10 33 -15.5t36 -7.5q5 0 10.5 -0.5t10.5 -0.5h10.5t10.5 1v-1zM455 586q0 -32 -34 -55.5t-82 -23.5t-82 23.5t-34 55.5q0 33 34 56t82 23t82 -23t34 -56v0z" />
<glyph unicode="k" horiz-adv-x="660" d="M708 107q0 -44 -31.5 -75.5t-76.5 -31.5h-186q-49 0 -84.5 35.5t-35.5 85.5v73h-72v-194h-222v665h222v-339l172 114h193l-208 -139h9q50 0 85 -35t35 -85v-74h200v0z" />
<glyph unicode="l" horiz-adv-x="442" d="M479 107q0 -44 -32 -75.5t-76 -31.5h-252q-49 0 -84.5 35.5t-35.5 85.5l-1 543h215v-557h266v0z" />
<glyph unicode="m" horiz-adv-x="1046" d="M1086 107q0 -44 -31.5 -75.5t-75.5 -31.5h-149.5h-148.5v239q0 7 -0.5 15t-1.5 17q-2 14 -6.5 27t-13.5 22q-7 7 -16.5 10t-20.5 3q-4 0 -8 -0.5t-8 -1.5q-11 -2 -22 -5t-20 -7q-5 -2 -9 -3.5t-8 -3.5l4 -14t3 -14t1.5 -14t0.5 -14v-256h-213v239q0 7 -0.5 15t-1.5 17 q-2 14 -6.5 27t-13.5 22q-7 7 -16.5 10t-20.5 3h-4t-4 -1q-11 -1 -21.5 -4t-19.5 -6q-4 -1 -6.5 -2t-5.5 -2v-318h-222v440h222v-10q18 5 37 8.5t38 4.5q7 1 13.5 1h12.5q41 0 81.5 -11t74.5 -35q36 20 78.5 32t85.5 14h8h8q41 0 79 -10t71 -31q38 -25 61.5 -63t23.5 -84 v-149h191v0z" />
<glyph unicode="n" horiz-adv-x="743" d="M781 107q-1 -44 -32.5 -75.5t-75.5 -31.5h-316v239q0 7 -0.5 15t-1.5 17q-1 14 -6 27t-14 22q-7 7 -16.5 10t-20.5 3q-4 0 -8 -0.5t-8 -1.5q-11 -2 -22 -5t-20 -7q-5 -2 -9 -3.5t-8 -3.5v-312h-222v440h222v-14q27 8 56 13t58 5q40 0 78 -9.5t72 -31.5q38 -25 61 -63 t23 -84v-149h210v0z" />
<glyph unicode="o" horiz-adv-x="732" d="M775 440q-1 -44 -32.5 -75.5t-75.5 -31.5h-137q20 -26 30 -56t10 -62v-4v-3q-2 -48 -25.5 -92.5t-64.5 -74.5t-91.5 -44t-103.5 -14q-52 0 -101.5 14.5t-90.5 43.5q-44 32 -67 77.5t-23 93.5q0 47 22.5 92t67.5 77q38 27 88 43t105 16h489v0zM351 211q0 10 -2 24.5 t-6 29.5q-7 25 -20.5 46.5t-35.5 21.5t-36 -21t-21 -47q-4 -15 -6 -29.5t-2 -24.5t2 -24.5t6 -29.5q7 -25 20.5 -46.5t35.5 -21.5h1v0q22 0 35.5 21.5t20.5 46.5q4 15 6 29.5t2 24.5v0z" />
<glyph unicode="p" horiz-adv-x="713" d="M757 107q0 -44 -31.5 -75.5t-75.5 -31.5h-31h-78h-52.5h-56.5h-144.5h-72.5v-228l-215 1v667h215v-7q18 4 36.5 5.5t37.5 1.5h6.5h7.5q47 -2 93.5 -16.5t84.5 -42.5q42 -30 66 -71.5t24 -89.5q0 -31 -10.5 -59.5t-29.5 -53.5h226v0zM356 220q0 53 -22.5 82.5t-66.5 29.5 q-11 0 -24.5 -2t-27.5 -7v-210q11 -1 21.5 -2.5t20.5 -1.5q50 1 74.5 27.5t24.5 83.5v0z" />
<glyph unicode="q" horiz-adv-x="789" d="M840 107q0 -44 -31.5 -75.5t-75.5 -31.5h-162v-227h-215v232l-18 -2t-17 -2q-9 0 -18 -0.5t-18 -0.5q-52 0 -101.5 13.5t-93.5 45.5q-42 30 -66 71.5t-24 89.5t24 89.5t66 71.5q36 26 80 40.5t89 17.5q6 1 12 1h12q19 0 37 -1.5t36 -5.5v7h215v-333h269v0zM356 113v210 q-15 5 -28 7t-25 2q-43 0 -65.5 -29.5t-22.5 -82.5q0 -57 25.5 -84t75.5 -27q9 1 19.5 2t20.5 2v0z" />
<glyph unicode="r" horiz-adv-x="736" d="M781 107q0 -44 -31.5 -75.5t-75.5 -31.5h-208q-49 0 -85 35.5t-36 85.5v212h-132v-212q0 -49 -35 -85t-85 -36h-94v107h94q5 0 9 4t4 10v212h-98v107h552v-333h221v0z" />
<glyph unicode="s" horiz-adv-x="754" d="M796 107q0 -44 -32 -75.5t-76 -31.5h-429q-32 0 -51 5.5t-32 11.5q-5 3 -10 5.5l-9 4.5l-3 -4l-15 -23h-141v107h85l264 384l88 -61l-17 -24q7 -3 14 -6.5t14 -7.5q55 -30 100.5 -81t45.5 -114q0 -25 -8.5 -47.5t-24.5 -42.5h237v0zM373 131q5 7 7 15.5t2 18.5 q0 8 -1.5 17t-3.5 18q-3 13 -8.5 26.5t-10.5 24.5q-4 8 -8 14.5t-7 11.5l-2 2t-1 3l-2 2l-2 2l-117 -170q19 -7 39 -8t40 -1q7 0 14.5 0.5t14.5 1.5q14 2 26.5 7t19.5 15v0z" />
<glyph unicode="t" horiz-adv-x="457" d="M497 107q0 -44 -31.5 -75.5t-75.5 -31.5h-269q-49 0 -84.5 35.5t-35.5 85.5v543h215v-224h102v-107h-102v-226h281v0z" />
<glyph unicode="u" horiz-adv-x="704" d="M761 107q0 -44 -32 -75.5t-76 -31.5h-307v14q-31 -10 -63.5 -14t-65.5 -4q-9 0 -18.5 0.5t-19.5 1.5q-62 6 -115 38t-64 100q0 8 -0.5 14t-0.5 12l-1 278h214v-262q0 -25 4 -40.5t12 -22.5q6 -5 14.5 -7.5t18.5 -2.5q6 0 12.5 1t12.5 2q10 2 20 5t18 6q7 3 12.5 5t9.5 4 v312h222v-333h193v0z" />
<glyph unicode="v" horiz-adv-x="756" d="M782 440q0 -44 -32 -75.5t-76 -31.5h-115l-85 -212q-19 -46 -65.5 -83.5t-114.5 -37.5h-295v440h222v-333h29l85 212q19 47 49 84t97 37h301v0z" />
<glyph unicode="w" horiz-adv-x="1066" d="M1104 440q0 -44 -31.5 -75.5t-75.5 -31.5h-106v-167q0 -46 -23 -84t-62 -63q-30 -19 -68 -29.5t-82 -10.5h-7.5h-6.5q-53 2 -104 18.5t-94 45.5q-40 -27 -90 -43.5t-101 -19.5q-6 -1 -11.5 -1h-10.5q-40 0 -78 10t-71 30q-38 25 -61 63t-23 84l-1 274h214v-257 q0 -7 0.5 -15t1.5 -17q2 -14 6.5 -27t13.5 -22q8 -7 17.5 -10t19.5 -3q4 0 8.5 0.5t9.5 1.5l16 4t15 5l6 2l6 2v336h222v-334q3 -1 6 -2.5t7 -2.5q7 -3 16 -5.5t18 -4.5q5 -1 9.5 -1.5t9.5 -0.5q11 0 20 3t16 10q9 9 13.5 22t6.5 27q1 9 1.5 17t0.5 15v257h427v0z" />
<glyph unicode="x" horiz-adv-x="862" d="M823 107q-1 -44 -32.5 -75.5t-75.5 -31.5h-211q-6 0 -12.5 0.5t-12.5 1.5q-39 7 -75.5 32t-58.5 55l-17 22l-103 -111h-145l184 198l-100 135h-125v107h215q7 0 13.5 -0.5t13.5 -2.5q37 -7 72 -30t57 -51l78 84h146l-159 -171l119 -162h229v0z" />
<glyph unicode="y" horiz-adv-x="742" d="M792 107q-1 -44 -32.5 -75.5t-75.5 -31.5h-127v-61q0 -37 -19.5 -69.5t-53.5 -54.5q-32 -22 -71 -32.5t-80 -10.5q-40 0 -78 11t-70 32q-35 23 -54.5 56.5t-19.5 69.5q0 22 8.5 44t24.5 43q-58 25 -101 75t-43 117v220h213v-54.5v-55.5v-55.5v-54.5q0 -29 5.5 -52 t18.5 -37q11 -13 27 -18.5t33 -5.5h6t6 1q12 1 24 3.5t22 5.5v323h202v-333h235v0zM355 -121v121q-29 0 -57 -3.5t-54 -19.5q-13 -9 -19.5 -18t-5.5 -19q0 -3 0.5 -6t2.5 -6q2 -6 8 -12.5t14 -11.5q15 -11 33 -16.5t36 -7.5q5 0 10.5 -0.5t10.5 -0.5h10.5t10.5 1v-1z" />
<glyph unicode="z" horiz-adv-x="785" d="M826 107q-1 -44 -32.5 -75.5t-75.5 -31.5h-716l214 333h-215v107h613l-214 -333h426v0z" />
<glyph unicode="{" />
<glyph unicode="|" />
<glyph unicode="}" />
<glyph unicode="~" />
<glyph unicode="&#xa1;" horiz-adv-x="279" d="M12 -203l72 515h109l72 -515h-253v0zM45 402q0 26 27.5 45t65.5 19q39 0 66.5 -19t27.5 -45t-27.5 -44.5t-66.5 -18.5q-38 0 -65.5 18.5t-27.5 44.5v0z" />
<glyph unicode="&#xa2;" horiz-adv-x="385" d="M354 380l-67 -83q-4 3 -9 6l-10 6q-2 1 -3.5 1.5t-3.5 1.5v-94h30h31v-107h-61v-111h-54v111q-40 1 -74.5 11.5t-60.5 27.5q-33 22 -51 52.5t-18 66.5t18 66.5t51 52.5q27 18 57.5 26.5t61.5 10.5q4 1 8 1h8v98h54v-102q26 -4 49.5 -14.5t43.5 -27.5v0zM207 221v96 q-8 -4 -13.5 -12.5t-8.5 -17.5q-2 -5 -2.5 -9.5t-0.5 -8.5t0.5 -8t1.5 -8q3 -10 8.5 -19t14.5 -13v0z" />
<glyph unicode="&#xa3;" horiz-adv-x="443" d="M403 0h-398v107h51v136h-56v53h56v75q0 50 35.5 85.5t84.5 35.5h206v-107h-112v-89h72v-53h-72v-37q0 -25 -9 -46.5t-26 -38.5l-4 -4t-4 -3q-2 -2 -4 -3.5t-4 -3.5h184v-107v0z" />
<glyph unicode="&#xa4;" horiz-adv-x="492" d="M469 415l-74 -135q-2 4 -4.5 8t-5.5 8q-9 14 -20.5 25.5t-28.5 11.5q-27 0 -41.5 -18.5t-19.5 -42.5h115l-29 -54h-92v-4t1 -4v-4v-4h82l-30 -54h-41q8 -17 21 -29t35 -12h67v-107h-67q-56 0 -105.5 16t-87.5 43q-25 18 -44.5 41t-30.5 48h-68l30 54h24q0 2 -0.5 4 t-0.5 4v4v4h-46l30 54h24q10 32 31 59.5t51 49.5q38 27 87.5 43t105.5 16h1v0h1v0h12t12 -1q12 -1 24.5 -2.5t23.5 -4.5q16 -3 30.5 -7.5t27.5 -9.5v0z" />
<glyph unicode="&#xa5;" horiz-adv-x="567" d="M515 148h-157v-148h-201v148h-157v54h104q-4 3 -8.5 6.5t-9.5 7.5v0.5t-1 0.5l-0.5 0.5l-0.5 0.5h-84v54h43q-13 23 -20 49.5t-7 56.5v62h204v-141q0 -16 11 -27t27 -11q15 0 26.5 11t11.5 27v141h203v-62q0 -30 -6.5 -56.5t-19.5 -49.5h42v-54h-84l-0.5 -0.5l-0.5 -0.5 q-1 0 -1 -0.5v-0.5q-4 -4 -8.5 -7.5t-9.5 -6.5h104v-54v0z" />
<glyph unicode="&#xa6;" />
<glyph unicode="&#xa7;" />
<glyph unicode="&#xa8;" horiz-adv-x="310" d="M108 672h-91v90h91v-90v0zM225 672h-90v90h90v-90v0z" />
<glyph unicode="&#xa9;" />
<glyph unicode="&#xaa;" horiz-adv-x="456" d="M451 482q0 -25 -17.5 -42t-42.5 -17h-121q-12 0 -22.5 4t-18.5 11q-1 -1 -2.5 -1.5t-3.5 -0.5q-1 -1 -2.5 -1.5t-2.5 -1.5q-14 -5 -29 -7.5t-31 -2.5h-9.5t-9.5 1q-23 2 -45.5 10t-40.5 21q-23 17 -36 40t-13 49t13 49.5t36 39.5q20 14 45 22.5t51 10.5h4.5h5.5 q12 0 23.5 -1.5t21.5 -4.5v4h117v-182h130v0zM204 491v106q-9 5 -17 6.5t-16 1.5q-23 0 -35.5 -17.5t-12.5 -43.5q0 -25 13 -43t36 -18q7 0 15 2t17 6v0z" />
<glyph unicode="&#xab;" horiz-adv-x="465" d="M278 195l-75 -75l-190 189l190 190l75 -76l-113 -114l113 -114v0zM458 195l-75 -75l-190 189l190 190l75 -76l-113 -114l113 -114v0z" />
<glyph unicode="&#xac;" />
<glyph unicode="&#xad;" />
<glyph unicode="&#xae;" />
<glyph unicode="&#xaf;" horiz-adv-x="222" />
<glyph unicode="&#xb0;" />
<glyph unicode="&#xb1;" />
<glyph unicode="&#xb2;" />
<glyph unicode="&#xb3;" />
<glyph unicode="&#xb4;" horiz-adv-x="310" d="M257 751l-208 -69l-29 68l190 112l47 -111v0z" />
<glyph unicode="&#xb5;" />
<glyph unicode="&#xb6;" />
<glyph unicode="&#xb7;" horiz-adv-x="222" />
<glyph unicode="&#xb8;" horiz-adv-x="310" d="M277 -133q0 -47 -31 -81.5t-81 -34.5q-22 0 -42 8.5t-34 22.5l14 57q3 0 6.5 -1.5t7.5 -3.5q2 -1 4.5 -2t5.5 -2q4 -1 8.5 -2t8.5 -1q20 0 29.5 12t9.5 29t-9.5 31t-29.5 14l-51 -1v112h72v-41q50 1 81 -32.5t31 -82.5v-1z" />
<glyph unicode="&#xb9;" />
<glyph unicode="&#xba;" horiz-adv-x="440" d="M426 672q0 -24 -17.5 -41.5t-41.5 -17.5h-75q9 -11 14 -24t7 -27q1 -3 1 -6.5v-6.5q0 -28 -13.5 -53.5t-36.5 -42.5q-20 -15 -45 -23t-51 -10h-5h-6q-28 0 -55.5 8.5t-50.5 24.5q-25 17 -37 42t-12 52v4v5q2 23 14 45.5t35 38.5q21 14 48.5 23t57.5 9h269v0zM193 546 q0 5 -1 13t-3 17q-4 14 -11.5 25.5t-19.5 11.5q-13 0 -20.5 -11.5t-11.5 -25.5q-2 -9 -3 -17t-1 -13t1 -13t3 -17q4 -14 11.5 -25.5t19.5 -11.5h1v0q12 0 19.5 12t11.5 25q2 9 3 17t1 13v0z" />
<glyph unicode="&#xbb;" horiz-adv-x="473" d="M12 195l113 114l-113 114l75 76l190 -190l-190 -189l-75 75v0zM192 195l113 114l-113 114l75 76l190 -190l-190 -189l-75 75v0z" />
<glyph unicode="&#xbc;" />
<glyph unicode="&#xbd;" />
<glyph unicode="&#xbe;" />
<glyph unicode="&#xbf;" horiz-adv-x="585" d="M27 102q27 53 84.5 93t142.5 51q14 2 20.5 13.5t8.5 25.5q2 7 2.5 13t1.5 11h106v-5t1 -9q2 -19 3.5 -36.5t1.5 -34.5q0 -49 -22 -89t-93 -75l-4 -2t-3 -2q-23 -13 -41.5 -34.5t-17.5 -49.5v-3.5v-3.5t0.5 -3.5t0.5 -3.5q5 -28 26.5 -41t46.5 -13h4h5q13 2 25 7t22 14 q13 12 16.5 28.5t3.5 33.5v9.5v9.5q-1 5 -1 10v10h176v-14.5v-14.5q-1 -8 -1 -15.5v-14.5q-2 -71 -53 -111.5t-112 -56.5q-23 -6 -44.5 -8.5t-40.5 -2.5q-94 0 -157.5 31.5t-95.5 78.5q-18 25 -26.5 53.5t-8.5 56.5q0 24 6 48t17 46v0zM238 402q0 26 27.5 45t65.5 19 q39 0 66.5 -19t27.5 -45t-27.5 -44.5t-66.5 -18.5q-38 0 -65.5 18.5t-27.5 44.5v0z" />
<glyph unicode="&#xc0;" horiz-adv-x="643" d="M584 0h-229v333h-124v-333h-231q0 47 0.5 94t0.5 94t0.5 94t0.5 94q1 119 86 205t205 86q119 0 205 -85.5t86 -206.5v-375v0zM355 440v58q0 26 -18 44t-44 18q-25 0 -43.5 -18t-18.5 -44v-58h124v0zM358 750l-29 -68l-208 69l47 111l190 -112v0z" />
<glyph unicode="&#xc1;" horiz-adv-x="643" d="M584 0h-229v333h-124v-333h-231q0 47 0.5 94t0.5 94t0.5 94t0.5 94q1 119 86 205t205 86q119 0 205 -85.5t86 -206.5v-375v0zM355 440v58q0 26 -18 44t-44 18q-25 0 -43.5 -18t-18.5 -44v-58h124v0zM487 751l-208 -69l-29 68l190 112l47 -111v0z" />
<glyph unicode="&#xc2;" horiz-adv-x="643" d="M584 0h-229v333h-124v-333h-231q0 47 0.5 94t0.5 94t0.5 94t0.5 94q1 119 86 205t205 86q119 0 205 -85.5t86 -206.5v-375v0zM355 440v58q0 26 -18 44t-44 18q-25 0 -43.5 -18t-18.5 -44v-58h124v0zM425 684h-96l-34 25l-33 -25h-95v23l128 112l130 -113v-22v0z" />
<glyph unicode="&#xc3;" horiz-adv-x="643" d="M584 0h-229v333h-124v-333h-231q0 47 0.5 94t0.5 94t0.5 94t0.5 94q1 119 86 205t205 86q119 0 205 -85.5t86 -206.5v-375v0zM355 440v58q0 26 -18 44t-44 18q-25 0 -43.5 -18t-18.5 -44v-58h124v0zM436 733q0 -4 -0.5 -8.5t-1.5 -9.5q-3 -9 -8 -17t-13 -13t-17 -8 t-19 -3q-4 0 -8.5 1t-9.5 2l-139 42v-36h-66v78q0 14 6 27t18 21q8 6 16.5 8.5t17.5 2.5q5 0 10 -0.5t9 -2.5l140 -42v36h65v-78v0z" />
<glyph unicode="&#xc4;" horiz-adv-x="643" d="M584 0h-229v333h-124v-333h-231q0 47 0.5 94t0.5 94t0.5 94t0.5 94q1 119 86 205t205 86q119 0 205 -85.5t86 -206.5v-375v0zM355 440v58q0 26 -18 44t-44 18q-25 0 -43.5 -18t-18.5 -44v-58h124v0zM288 682h-91v90h91v-90v0zM405 682h-90v90h90v-90v0z" />
<glyph unicode="&#xc5;" horiz-adv-x="643" d="M584 0h-229v333h-124v-333h-231q0 47 0.5 94t0.5 94t0.5 94t0.5 94q1 119 86 205t205 86q119 0 205 -85.5t86 -206.5v-375v0zM355 440v58q0 26 -18 44t-44 18q-25 0 -43.5 -18t-18.5 -44v-58h124v0zM378 758q0 -32 -23 -55.5t-56 -23.5q-32 0 -55.5 23.5t-23.5 55.5 q0 33 23.5 56.5t55.5 23.5q33 0 56 -23.5t23 -56.5v0zM324 758q0 11 -7 18t-18 7q-10 0 -17 -7t-7 -18q0 -10 7 -17t17 -7q11 0 18 7t7 17v0z" />
<glyph unicode="&#xc6;" horiz-adv-x="987" d="M922 0h-565v333h-124v-333h-231q0 47 0.5 94t0.5 94t0.5 94t0.5 94q0 119 85.5 205t205.5 86q53 0 100 -17.5t85 -49.5q22 30 56 48.5t77 18.5h309v-107h-193q-25 0 -38 -19t-12 -42v-1.5v-1.5q1 -21 13.5 -38.5t36.5 -17.5h193v-107h-193q-48 0 -72.5 -34.5t-25.5 -75.5 v-1.5v-1.5q0 -43 24.5 -78t73.5 -35h193v-107v0zM357 440v58q0 26 -18 44t-44 18q-25 0 -43.5 -18t-18.5 -44v-58h124v0z" />
<glyph unicode="&#xc7;" horiz-adv-x="596" d="M457 -133q0 -47 -31 -81.5t-81 -34.5q-22 0 -42 8.5t-34 22.5l14 57q3 0 6.5 -1.5t7.5 -3.5q2 -1 4.5 -2t5.5 -2q5 -1 9 -2t8 -1q20 0 29.5 12t9.5 29t-9.5 31t-29.5 14l-51 -1v112h72v-41q50 1 81 -32.5t31 -82.5v-1zM543 0h-259q-116 0 -199.5 83t-83.5 200v118 q0 117 83.5 200.5t200.5 83.5h10.5t10.5 -1q88 -7 161.5 -66t74.5 -155v-54h-199v110q0 24 -17 41.5t-41 17.5q-25 0 -42 -17.5t-17 -41.5v-354q0 -24 17 -41t41 -17h259v-107v0z" />
<glyph unicode="&#xc8;" horiz-adv-x="605" d="M551 0h-329q-91 0 -156 64.5t-65 155.5q0 56 28 106t75 80q-15 23 -22.5 46.5t-6.5 47.5q0 20 5 39.5t14 37.5q21 39 59.5 64.5t88.5 25.5h309v-107h-193q-25 0 -37.5 -18.5t-12.5 -41.5q0 -22 12.5 -41t37.5 -19h193v-107h-193q-49 0 -73.5 -35t-24.5 -78t24.5 -78 t73.5 -35h193v-107v0zM398 750l-29 -68l-208 69l47 111l190 -112v0z" />
<glyph unicode="&#xc9;" horiz-adv-x="605" d="M551 0h-329q-91 0 -156 64.5t-65 155.5q0 56 28 106t75 80q-15 23 -22.5 46.5t-6.5 47.5q0 20 5 39.5t14 37.5q21 39 59.5 64.5t88.5 25.5h309v-107h-193q-25 0 -37.5 -18.5t-12.5 -41.5q0 -22 12.5 -41t37.5 -19h193v-107h-193q-49 0 -73.5 -35t-24.5 -78t24.5 -78 t73.5 -35h193v-107v0zM537 751l-208 -69l-29 68l190 112l47 -111v0z" />
<glyph unicode="&#xca;" horiz-adv-x="605" d="M551 0h-329q-91 0 -156 64.5t-65 155.5q0 56 28 106t75 80q-15 23 -22.5 46.5t-6.5 47.5q0 20 5 39.5t14 37.5q21 39 59.5 64.5t88.5 25.5h309v-107h-193q-25 0 -37.5 -18.5t-12.5 -41.5q0 -22 12.5 -41t37.5 -19h193v-107h-193q-49 0 -73.5 -35t-24.5 -78t24.5 -78 t73.5 -35h193v-107v0zM465 684h-96l-34 25l-33 -25h-95v23l128 112l130 -113v-22v0z" />
<glyph unicode="&#xcb;" horiz-adv-x="605" d="M551 0h-329q-91 0 -156 64.5t-65 155.5q0 56 28 106t75 80q-15 23 -22.5 46.5t-6.5 47.5q0 20 5 39.5t14 37.5q21 39 59.5 64.5t88.5 25.5h309v-107h-193q-25 0 -37.5 -18.5t-12.5 -41.5q0 -22 12.5 -41t37.5 -19h193v-107h-193q-49 0 -73.5 -35t-24.5 -78t24.5 -78 t73.5 -35h193v-107v0zM338 682h-91v90h91v-90v0zM455 682h-90v90h90v-90v0z" />
<glyph unicode="&#xcc;" horiz-adv-x="285" d="M224 0h-226v667h226v-667v0zM168 750l-29 -68l-208 69l47 111l190 -112v0z" />
<glyph unicode="&#xcd;" horiz-adv-x="285" d="M224 0h-226v667h226v-667v0zM257 751l-208 -69l-29 68l190 112l47 -111v0z" />
<glyph unicode="&#xce;" horiz-adv-x="285" d="M224 0h-226v667h226v-667v0zM245 684h-96l-34 25l-33 -25h-95v23l128 112l130 -113v-22v0z" />
<glyph unicode="&#xcf;" horiz-adv-x="285" d="M224 0h-226v667h226v-667v0zM101 685h-91v90h91v-90v0zM218 685h-90v90h90v-90v0z" />
<glyph unicode="&#xd0;" horiz-adv-x="665" d="M616 283q0 -115 -82.5 -198.5t-198.5 -84.5h-1.5h-0.5h-284v241h-48v107h48v319h284q116 0 199.5 -83.5t83.5 -200.5v-49.5v-50.5v0zM391 165v168v168q0 24 -17 41.5t-41 17.5h-59v-212h52v-107h-52v-134h59q24 0 41 17t17 41v0z" />
<glyph unicode="&#xd1;" horiz-adv-x="611" d="M556 0h-226v273l-103 124v-397h-225v667h142l186 -226v226h226v-667v0zM396 733q0 -4 -0.5 -8.5t-1.5 -9.5q-3 -9 -8 -17t-13 -13t-17 -8t-19 -3q-4 0 -8.5 1t-9.5 2l-139 42v-36h-66v78q0 14 6 27t18 21q8 6 16.5 8.5t17.5 2.5q5 0 10 -0.5t9 -2.5l140 -42v36h65v-78v0z " />
<glyph unicode="&#xd2;" horiz-adv-x="222" />
<glyph unicode="&#xd3;" horiz-adv-x="624" d="M566 265q0 -116 -83 -199t-200 -83t-200 83t-83 199l-1 136q1 117 84 200.5t200 83.5q116 0 199.5 -83t83.5 -201v-136v0zM341 147v372q0 24 -17 41.5t-41 17.5t-41.5 -17.5t-17.5 -41.5v-372q0 -24 17.5 -41t41.5 -17t41 17t17 41v0zM467 771l-208 -69l-29 68l190 112 l47 -111v0z" />
<glyph unicode="&#xd4;" horiz-adv-x="624" d="M566 265q0 -116 -83 -199t-200 -83t-200 83t-83 199l-1 136q1 117 84 200.5t200 83.5q116 0 199.5 -83t83.5 -201v-136v0zM341 147v372q0 24 -17 41.5t-41 17.5t-41.5 -17.5t-17.5 -41.5v-372q0 -24 17.5 -41t41.5 -17t41 17t17 41v0zM415 704h-96l-34 25l-33 -25h-95v23 l128 112l130 -113v-22v0z" />
<glyph unicode="&#xd5;" horiz-adv-x="624" d="M566 265q0 -116 -83 -199t-200 -83t-200 83t-83 199l-1 136q1 117 84 200.5t200 83.5q116 0 199.5 -83t83.5 -201v-136v0zM341 147v372q0 24 -17 41.5t-41 17.5t-41.5 -17.5t-17.5 -41.5v-372q0 -24 17.5 -41t41.5 -17t41 17t17 41v0zM422 751q0 -4 -0.5 -8.5t-1.5 -9.5 q-3 -9 -8 -17t-13 -13t-17 -8t-19 -3q-4 0 -8.5 1t-9.5 2l-139 42v-36h-66v78q0 14 6 27t18 21q8 6 16.5 8.5t17.5 2.5q5 0 10 -0.5t9 -2.5l140 -42v36h65v-78v0z" />
<glyph unicode="&#xd6;" horiz-adv-x="624" d="M566 265q0 -116 -83 -199t-200 -83t-200 83t-83 199l-1 136q1 117 84 200.5t200 83.5q116 0 199.5 -83t83.5 -201v-136v0zM341 147v372q0 24 -17 41.5t-41 17.5t-41.5 -17.5t-17.5 -41.5v-372q0 -24 17.5 -41t41.5 -17t41 17t17 41v0zM277 707h-91v90h91v-90v0zM394 707 h-90v90h90v-90v0z" />
<glyph unicode="&#xd7;" />
<glyph unicode="&#xd8;" horiz-adv-x="624" d="M566 263q0 -116 -83 -199t-200 -83q-37 0 -71.5 9t-65.5 25l-31 -57h-51l44 82q-49 39 -78.5 97.5t-29.5 125.5l-1 120q1 117 84 200.5t200 83.5q37 0 71.5 -9.5t64.5 -26.5l32 58h51l-45 -83q50 -39 79.5 -97t29.5 -126v-120v0zM341 145v248l-117 -234v-14 q0 -24 17.5 -41t41.5 -17t41 17t17 41v0zM341 488v13q0 24 -17 41.5t-41 17.5t-41.5 -17.5t-17.5 -41.5v-248l117 235v0z" />
<glyph unicode="&#xd9;" horiz-adv-x="641" d="M583 251q0 -122 -87 -195t-205 -73q-116 0 -203.5 72t-87.5 196v416h229v-516q0 -25 18.5 -43.5t43.5 -18.5q26 0 44.5 18.5t18.5 43.5v516h229v-416v0zM338 750l-29 -68l-208 69l47 111l190 -112v0z" />
<glyph unicode="&#xda;" horiz-adv-x="641" d="M583 251q0 -122 -87 -195t-205 -73q-116 0 -203.5 72t-87.5 196v416h229v-516q0 -25 18.5 -43.5t43.5 -18.5q26 0 44.5 18.5t18.5 43.5v516h229v-416v0zM477 751l-208 -69l-29 68l190 112l47 -111v0z" />
<glyph unicode="&#xdb;" horiz-adv-x="641" d="M583 251q0 -122 -87 -195t-205 -73q-116 0 -203.5 72t-87.5 196v416h229v-516q0 -25 18.5 -43.5t43.5 -18.5q26 0 44.5 18.5t18.5 43.5v516h229v-416v0zM425 684h-96l-34 25l-33 -25h-95v23l128 112l130 -113v-22v0z" />
<glyph unicode="&#xdc;" horiz-adv-x="641" d="M583 251q0 -122 -87 -195t-205 -73q-116 0 -203.5 72t-87.5 196v416h229v-516q0 -25 18.5 -43.5t43.5 -18.5q26 0 44.5 18.5t18.5 43.5v516h229v-416v0zM278 682h-91v90h91v-90v0zM395 682h-90v90h90v-90v0z" />
<glyph unicode="&#xdd;" horiz-adv-x="222" />
<glyph unicode="&#xde;" horiz-adv-x="614" d="M586 324q0 -91 -64.5 -155.5t-155.5 -64.5h-111v-104h-227v667h227v-123h55.5h55.5q91 0 155.5 -64.5t64.5 -155.5v0zM342 260v64v63q0 20 -15 35t-35 15h-37v-226h37q20 0 35 14.5t15 34.5v0z" />
<glyph unicode="&#xdf;" horiz-adv-x="778" d="M821 107q0 -44 -31.5 -75.5t-75.5 -31.5h-447v107h130q21 0 31.5 6.5t11.5 14.5v2t-1 3q-2 7 -12.5 14.5t-28.5 11.5q-3 1 -6.5 2t-7.5 1q-48 14 -92 42.5t-65 74.5v-279h-226v369q0 117 83.5 200t200.5 83q66 0 115.5 -47t49.5 -115q0 -31 -12 -60t-34 -51 q-4 -5 -7 -10.5t-3 -10.5v-1.5t1 -1.5v-1.5v-0.5q2 -6 7 -10.5t14 -5.5t18 -2.5t18 -4.5q63 -15 115.5 -58t51.5 -112v-1.5v-0.5v-1.5v-1.5q-1 -13 -3 -25t-7 -23h212v0zM343 490q0 23 -17.5 39t-40.5 16q-24 0 -41 -17t-17 -41v-22v-22v-22v-22q16 32 44.5 52.5t62.5 30.5 h1.5t0.5 1q3 0 5 2t2 5v0z" />
<glyph unicode="&#xe0;" horiz-adv-x="789" d="M814 107q0 -44 -32 -75.5t-76 -31.5h-221q-21 0 -40.5 7t-34.5 20q-3 -1 -5.5 -2t-4.5 -2q-2 -2 -4.5 -3t-5.5 -2q-25 -9 -52 -13.5t-55 -4.5h-10.5t-10.5 1q-46 2 -91 17t-81 41q-41 30 -65 71.5t-24 89.5t24 89.5t65 71.5q36 26 81 41t91 18h10.5h10.5q21 0 42 -2.5 t40 -7.5v9h214v-332h235v0zM365 123v194q-16 8 -30.5 11.5t-28.5 2.5q-42 0 -64.5 -32t-22.5 -79q0 -46 22.5 -79t65.5 -32q13 0 27.5 3.5t30.5 10.5v0zM416 528l-29 -68l-208 69l47 111l190 -112v0z" />
<glyph unicode="&#xe1;" horiz-adv-x="789" d="M814 107q0 -44 -32 -75.5t-76 -31.5h-221q-21 0 -40.5 7t-34.5 20q-3 -1 -5.5 -2t-4.5 -2q-2 -2 -4.5 -3t-5.5 -2q-25 -9 -52 -13.5t-55 -4.5h-10.5t-10.5 1q-46 2 -91 17t-81 41q-41 30 -65 71.5t-24 89.5t24 89.5t65 71.5q36 26 81 41t91 18h10.5h10.5q21 0 42 -2.5 t40 -7.5v9h214v-332h235v0zM365 123v194q-16 8 -30.5 11.5t-28.5 2.5q-42 0 -64.5 -32t-22.5 -79q0 -46 22.5 -79t65.5 -32q13 0 27.5 3.5t30.5 10.5v0zM512 529l-208 -69l-29 68l190 112l47 -111v0z" />
<glyph unicode="&#xe2;" horiz-adv-x="789" d="M814 107q0 -44 -32 -75.5t-76 -31.5h-221q-21 0 -40.5 7t-34.5 20q-3 -1 -5.5 -2t-4.5 -2q-2 -2 -4.5 -3t-5.5 -2q-25 -9 -52 -13.5t-55 -4.5h-10.5t-10.5 1q-46 2 -91 17t-81 41q-41 30 -65 71.5t-24 89.5t24 89.5t65 71.5q36 26 81 41t91 18h10.5h10.5q21 0 42 -2.5 t40 -7.5v9h214v-332h235v0zM365 123v194q-16 8 -30.5 11.5t-28.5 2.5q-42 0 -64.5 -32t-22.5 -79q0 -46 22.5 -79t65.5 -32q13 0 27.5 3.5t30.5 10.5v0zM426 462h-96l-34 25l-33 -25h-95v23l128 112l130 -113v-22v0z" />
<glyph unicode="&#xe3;" horiz-adv-x="789" d="M814 107q0 -44 -32 -75.5t-76 -31.5h-221q-21 0 -40.5 7t-34.5 20q-3 -1 -5.5 -2t-4.5 -2q-2 -2 -4.5 -3t-5.5 -2q-25 -9 -52 -13.5t-55 -4.5h-10.5t-10.5 1q-46 2 -91 17t-81 41q-41 30 -65 71.5t-24 89.5t24 89.5t65 71.5q36 26 81 41t91 18h10.5h10.5q21 0 42 -2.5 t40 -7.5v9h214v-332h235v0zM365 123v194q-16 8 -30.5 11.5t-28.5 2.5q-42 0 -64.5 -32t-22.5 -79q0 -46 22.5 -79t65.5 -32q13 0 27.5 3.5t30.5 10.5v0zM437 523q0 -4 -0.5 -8.5t-1.5 -9.5q-3 -9 -8 -17t-13 -13t-17 -8t-19 -3q-4 0 -8.5 1t-9.5 2l-139 42v-36h-66v78 q0 14 6 27t18 21q8 6 16.5 8.5t17.5 2.5q5 0 10 -0.5t9 -2.5l140 -42v36h65v-78v0z" />
<glyph unicode="&#xe4;" horiz-adv-x="789" d="M814 107q0 -44 -32 -75.5t-76 -31.5h-221q-21 0 -40.5 7t-34.5 20q-3 -1 -5.5 -2t-4.5 -2q-2 -2 -4.5 -3t-5.5 -2q-25 -9 -52 -13.5t-55 -4.5h-10.5t-10.5 1q-46 2 -91 17t-81 41q-41 30 -65 71.5t-24 89.5t24 89.5t65 71.5q36 26 81 41t91 18h10.5h10.5q21 0 42 -2.5 t40 -7.5v9h214v-332h235v0zM365 123v194q-16 8 -30.5 11.5t-28.5 2.5q-42 0 -64.5 -32t-22.5 -79q0 -46 22.5 -79t65.5 -32q13 0 27.5 3.5t30.5 10.5v0zM333 465h-91v90h91v-90v0zM450 465h-90v90h90v-90v0z" />
<glyph unicode="&#xe5;" horiz-adv-x="789" d="M814 107q0 -44 -32 -75.5t-76 -31.5h-221q-21 0 -40.5 7t-34.5 20q-3 -1 -5.5 -2t-4.5 -2q-2 -2 -4.5 -3t-5.5 -2q-25 -9 -52 -13.5t-55 -4.5h-10.5t-10.5 1q-46 2 -91 17t-81 41q-41 30 -65 71.5t-24 89.5t24 89.5t65 71.5q36 26 81 41t91 18h10.5h10.5q21 0 42 -2.5 t40 -7.5v9h214v-332h235v0zM365 123v194q-16 8 -30.5 11.5t-28.5 2.5q-42 0 -64.5 -32t-22.5 -79q0 -46 22.5 -79t65.5 -32q13 0 27.5 3.5t30.5 10.5v0zM363 538q0 -32 -23 -55.5t-56 -23.5q-32 0 -55.5 23.5t-23.5 55.5q0 33 23.5 56.5t55.5 23.5q33 0 56 -23.5t23 -56.5v0 zM309 538q0 11 -7 18t-18 7q-10 0 -17 -7t-7 -18q0 -10 7 -17t17 -7q11 0 18 7t7 17v0z" />
<glyph unicode="&#xe6;" horiz-adv-x="1055" d="M1106 107q0 -44 -32 -75.5t-76 -31.5h-322v0h-1q-58 0 -112.5 10t-104.5 44q-6 -3 -12 -6.5t-12 -6.5q-12 -6 -23.5 -12t-24.5 -11q-25 -9 -52 -13.5t-55 -4.5h-10.5t-10.5 1q-46 2 -91 17t-81 41q-41 30 -65 71.5t-24 89.5t24 89.5t65 71.5q34 25 76.5 40t86.5 18 q7 1 14.5 1h14.5q21 0 42 -2.5t40 -7.5v9h215v-6q17 4 35 5.5t36 1.5q49 0 95.5 -14t82.5 -44q37 -31 56.5 -73t19.5 -89v-31.5v-32.5h-308q11 -25 33 -37t50 -12h431v0zM360 123v194q-16 8 -30.5 11.5t-27.5 2.5q-42 0 -64.5 -32t-22.5 -79q0 -46 22.5 -79t64.5 -32 q13 0 27.5 3.5t30.5 10.5v0zM707 263q-3 15 -7 27.5t-11 22.5q-7 11 -19 15.5t-26 4.5q-13 0 -24.5 -5t-18.5 -15t-11.5 -22.5t-6.5 -27.5h124v0z" />
<glyph unicode="&#xe7;" horiz-adv-x="763" d="M467 -133q0 -47 -31 -81.5t-81 -34.5q-22 0 -42 8.5t-34 22.5l14 57q3 0 6.5 -1.5t7.5 -3.5q2 -1 4.5 -2t5.5 -2q5 -1 9 -2t8 -1q20 0 29.5 12t9.5 29t-9.5 31t-29.5 14l-51 -1v112h72v-41q50 1 81 -32.5t31 -82.5v-1zM786 107q-1 -44 -32.5 -75.5t-75.5 -31.5h-362h-8.5 h-9.5q-52 2 -103.5 14t-96.5 42q-46 31 -71.5 73t-25.5 91t25.5 91t71.5 73q45 30 96.5 42.5t103.5 13.5h9.5h8.5q24 0 47 -4t44 -10v36l153 -1v-222h-91q-11 36 -40.5 65.5t-94.5 28.5q-46 0 -80 -32.5t-34 -80.5q0 -46 32.5 -79t78.5 -34h2h453v0z" />
<glyph unicode="&#xe8;" horiz-adv-x="694" d="M734 107q-1 -44 -32.5 -75.5t-75.5 -31.5h-310h-1q-61 0 -117 11t-107 48q-45 32 -67.5 74.5t-22.5 86.5t22.5 86.5t67.5 74.5q35 26 81 41.5t94 17.5h9.5h9.5q50 0 96 -14t83 -44q37 -31 56.5 -73t19.5 -89v-31.5v-32.5h-308q11 -25 32.5 -37t49.5 -12h420v0zM346 263 q-2 15 -6.5 27.5t-10.5 22.5q-7 9 -17.5 14t-21.5 6h-3.5h-2.5q-13 0 -24.5 -5t-18.5 -15t-11.5 -22.5t-6.5 -27.5h123v0zM311 528l-29 -68l-208 69l47 111l190 -112v0z" />
<glyph unicode="&#xe9;" horiz-adv-x="694" d="M734 107q-1 -44 -32.5 -75.5t-75.5 -31.5h-310h-1q-61 0 -117 11t-107 48q-45 32 -67.5 74.5t-22.5 86.5t22.5 86.5t67.5 74.5q35 26 81 41.5t94 17.5h9.5h9.5q50 0 96 -14t83 -44q37 -31 56.5 -73t19.5 -89v-31.5v-32.5h-308q11 -25 32.5 -37t49.5 -12h420v0zM346 263 q-2 15 -6.5 27.5t-10.5 22.5q-7 9 -17.5 14t-21.5 6h-3.5h-2.5q-13 0 -24.5 -5t-18.5 -15t-11.5 -22.5t-6.5 -27.5h123v0zM488 529l-208 -69l-29 68l190 112l47 -111v0z" />
<glyph unicode="&#xea;" horiz-adv-x="694" d="M734 107q-1 -44 -32.5 -75.5t-75.5 -31.5h-310h-1q-61 0 -117 11t-107 48q-45 32 -67.5 74.5t-22.5 86.5t22.5 86.5t67.5 74.5q35 26 81 41.5t94 17.5h9.5h9.5q50 0 96 -14t83 -44q37 -31 56.5 -73t19.5 -89v-31.5v-32.5h-308q11 -25 32.5 -37t49.5 -12h420v0zM346 263 q-2 15 -6.5 27.5t-10.5 22.5q-7 9 -17.5 14t-21.5 6h-3.5h-2.5q-13 0 -24.5 -5t-18.5 -15t-11.5 -22.5t-6.5 -27.5h123v0zM414 462h-96l-34 25l-33 -25h-95v23l128 112l130 -113v-22v0z" />
<glyph unicode="&#xeb;" horiz-adv-x="694" d="M734 107q-1 -44 -32.5 -75.5t-75.5 -31.5h-310h-1q-61 0 -117 11t-107 48q-45 32 -67.5 74.5t-22.5 86.5t22.5 86.5t67.5 74.5q35 26 81 41.5t94 17.5h9.5h9.5q50 0 96 -14t83 -44q37 -31 56.5 -73t19.5 -89v-31.5v-32.5h-308q11 -25 32.5 -37t49.5 -12h420v0zM346 263 q-2 15 -6.5 27.5t-10.5 22.5q-7 9 -17.5 14t-21.5 6h-3.5h-2.5q-13 0 -24.5 -5t-18.5 -15t-11.5 -22.5t-6.5 -27.5h123v0zM285 459h-91v90h91v-90v0zM402 459h-90v90h90v-90v0z" />
<glyph unicode="&#xec;" horiz-adv-x="370" d="M403 107q-1 -44 -32.5 -75.5t-75.5 -31.5h-174q-50 0 -85.5 35.5t-35.5 85.5v318h215v-332h188v0zM158 528l-29 -68l-208 69l47 111l190 -112v0z" />
<glyph unicode="&#xed;" horiz-adv-x="370" d="M403 107q-1 -44 -32.5 -75.5t-75.5 -31.5h-174q-50 0 -85.5 35.5t-35.5 85.5v318h215v-332h188v0zM314 526l-208 -69l-29 68l190 112l47 -111v0z" />
<glyph unicode="&#xee;" horiz-adv-x="370" d="M403 107q-1 -44 -32.5 -75.5t-75.5 -31.5h-174q-50 0 -85.5 35.5t-35.5 85.5v318h215v-332h188v0zM240 460h-96l-34 25l-33 -25h-95v23l128 112l130 -113v-22v0z" />
<glyph unicode="&#xef;" horiz-adv-x="370" d="M403 107q-1 -44 -32.5 -75.5t-75.5 -31.5h-174q-50 0 -85.5 35.5t-35.5 85.5v318h215v-332h188v0zM94 459h-91v90h91v-90v0zM211 459h-90v90h90v-90v0z" />
<glyph unicode="&#xf0;" horiz-adv-x="705" d="M755 107q0 -42 -28 -74.5t-69 -32.5h-186q-19 0 -35.5 6t-30.5 16q-24 -9 -50.5 -14.5t-53.5 -6.5q-6 -1 -11.5 -1h-10.5h-6h-6q-49 2 -96 16.5t-85 42.5q-42 30 -64 70t-24 82v5.5v4.5q0 44 21.5 86t66.5 74q38 27 88 43t106 16h68v51h-91l22 34h69v32h-112v107h206 q50 0 85.5 -35.5t35.5 -85.5v-18h86l-22 -34h-64v-273q-1 -30 -11 -58t-29 -53h231v0zM346 220q0 9 -2 22t-5 26q-7 24 -21 44.5t-37 20.5t-37 -20t-21 -44q-3 -14 -5 -27t-2 -22t1.5 -22t5.5 -26q7 -24 21 -44.5t37 -20.5h1v0q22 0 36 20t21 44q3 14 5 27t2 22v0z" />
<glyph unicode="&#xf1;" horiz-adv-x="743" d="M781 107q-1 -44 -32.5 -75.5t-75.5 -31.5h-316v239q0 7 -0.5 15t-1.5 17q-1 14 -6 27t-14 22q-7 7 -16.5 10t-20.5 3q-4 0 -8 -0.5t-8 -1.5q-11 -2 -22 -5t-20 -7q-5 -2 -9 -3.5t-8 -3.5v-312h-222v440h222v-14q27 8 56 13t58 5q40 0 78 -9.5t72 -31.5q38 -25 61 -63 t23 -84v-149h210v0zM410 520q0 -4 -0.5 -8.5t-1.5 -9.5q-3 -9 -8 -17t-13 -13t-17 -8t-19 -3q-4 0 -8.5 1t-9.5 2l-139 42v-36h-66v78q0 14 6 27t18 21q8 6 16.5 8.5t17.5 2.5q5 0 10 -0.5t9 -2.5l140 -42v36h65v-78v0z" />
<glyph unicode="&#xf2;" horiz-adv-x="732" d="M775 440q-1 -44 -32.5 -75.5t-75.5 -31.5h-137q20 -26 30 -56t10 -62v-4v-3q-2 -48 -25.5 -92.5t-64.5 -74.5t-91.5 -44t-103.5 -14q-52 0 -101.5 14.5t-90.5 43.5q-44 32 -67 77.5t-23 93.5q0 47 22.5 92t67.5 77q38 27 88 43t105 16h489v0zM351 211q0 10 -2 24.5 t-6 29.5q-7 25 -20.5 46.5t-35.5 21.5t-36 -21t-21 -47q-4 -15 -6 -29.5t-2 -24.5t2 -24.5t6 -29.5q7 -25 20.5 -46.5t35.5 -21.5h1v0q22 0 35.5 21.5t20.5 46.5q4 15 6 29.5t2 24.5v0zM356 528l-29 -68l-208 69l47 111l190 -112v0z" />
<glyph unicode="&#xf3;" horiz-adv-x="732" d="M775 440q-1 -44 -32.5 -75.5t-75.5 -31.5h-137q20 -26 30 -56t10 -62v-4v-3q-2 -48 -25.5 -92.5t-64.5 -74.5t-91.5 -44t-103.5 -14q-52 0 -101.5 14.5t-90.5 43.5q-44 32 -67 77.5t-23 93.5q0 47 22.5 92t67.5 77q38 27 88 43t105 16h489v0zM351 211q0 10 -2 24.5 t-6 29.5q-7 25 -20.5 46.5t-35.5 21.5t-36 -21t-21 -47q-4 -15 -6 -29.5t-2 -24.5t2 -24.5t6 -29.5q7 -25 20.5 -46.5t35.5 -21.5h1v0q22 0 35.5 21.5t20.5 46.5q4 15 6 29.5t2 24.5v0zM521 529l-208 -69l-29 68l190 112l47 -111v0z" />
<glyph unicode="&#xf4;" horiz-adv-x="732" d="M775 440q-1 -44 -32.5 -75.5t-75.5 -31.5h-137q20 -26 30 -56t10 -62v-4v-3q-2 -48 -25.5 -92.5t-64.5 -74.5t-91.5 -44t-103.5 -14q-52 0 -101.5 14.5t-90.5 43.5q-44 32 -67 77.5t-23 93.5q0 47 22.5 92t67.5 77q38 27 88 43t105 16h489v0zM351 211q0 10 -2 24.5 t-6 29.5q-7 25 -20.5 46.5t-35.5 21.5t-36 -21t-21 -47q-4 -15 -6 -29.5t-2 -24.5t2 -24.5t6 -29.5q7 -25 20.5 -46.5t35.5 -21.5h1v0q22 0 35.5 21.5t20.5 46.5q4 15 6 29.5t2 24.5v0zM423 462h-96l-34 25l-33 -25h-95v23l128 112l130 -113v-22v0z" />
<glyph unicode="&#xf5;" horiz-adv-x="732" d="M775 440q-1 -44 -32.5 -75.5t-75.5 -31.5h-137q20 -26 30 -56t10 -62v-4v-3q-2 -48 -25.5 -92.5t-64.5 -74.5t-91.5 -44t-103.5 -14q-52 0 -101.5 14.5t-90.5 43.5q-44 32 -67 77.5t-23 93.5q0 47 22.5 92t67.5 77q38 27 88 43t105 16h489v0zM351 211q0 10 -2 24.5 t-6 29.5q-7 25 -20.5 46.5t-35.5 21.5t-36 -21t-21 -47q-4 -15 -6 -29.5t-2 -24.5t2 -24.5t6 -29.5q7 -25 20.5 -46.5t35.5 -21.5h1v0q22 0 35.5 21.5t20.5 46.5q4 15 6 29.5t2 24.5v0zM437 520q0 -4 -0.5 -8.5t-1.5 -9.5q-3 -9 -8 -17t-13 -13t-17 -8t-19 -3q-4 0 -8.5 1 t-9.5 2l-139 42v-36h-66v78q0 14 6 27t18 21q8 6 16.5 8.5t17.5 2.5q5 0 10 -0.5t9 -2.5l140 -42v36h65v-78v0z" />
<glyph unicode="&#xf6;" horiz-adv-x="732" d="M775 440q-1 -44 -32.5 -75.5t-75.5 -31.5h-137q20 -26 30 -56t10 -62v-4v-3q-2 -48 -25.5 -92.5t-64.5 -74.5t-91.5 -44t-103.5 -14q-52 0 -101.5 14.5t-90.5 43.5q-44 32 -67 77.5t-23 93.5q0 47 22.5 92t67.5 77q38 27 88 43t105 16h489v0zM351 211q0 10 -2 24.5 t-6 29.5q-7 25 -20.5 46.5t-35.5 21.5t-36 -21t-21 -47q-4 -15 -6 -29.5t-2 -24.5t2 -24.5t6 -29.5q7 -25 20.5 -46.5t35.5 -21.5h1v0q22 0 35.5 21.5t20.5 46.5q4 15 6 29.5t2 24.5v0zM297 459h-91v90h91v-90v0zM414 459h-90v90h90v-90v0z" />
<glyph unicode="&#xf7;" />
<glyph unicode="&#xf8;" horiz-adv-x="733" d="M774 440q0 -44 -31.5 -75.5t-75.5 -31.5h-140q16 -21 25.5 -43.5t12.5 -45.5q1 -6 1.5 -11.5t0.5 -11.5q0 -46 -23.5 -88.5t-66.5 -73.5q-41 -29 -91.5 -44t-103.5 -15q-40 0 -78 8.5t-73 25.5l-87 -87h-60l109 109l-1.5 1.5t-2.5 1.5q-44 32 -66.5 74.5t-22.5 87.5v5.5 v4.5q3 41 25 80.5t64 69.5q38 27 88 43t106 16h194l86 86h59l-85 -86h237v0zM348 220q0 6 -0.5 13.5t-2.5 14.5l-107 -107q8 -15 19 -24.5t27 -9.5q22 0 36 20t21 44q3 14 5 27t2 22v0zM331 294q-7 17 -19 28t-29 11q-22 0 -36 -20t-21 -44q-4 -14 -6 -27t-2 -22 q0 -7 1.5 -16t2.5 -19l109 109v0z" />
<glyph unicode="&#xf9;" horiz-adv-x="704" d="M761 107q0 -44 -32 -75.5t-76 -31.5h-307v14q-31 -10 -63.5 -14t-65.5 -4q-9 0 -18.5 0.5t-19.5 1.5q-62 6 -115 38t-64 100q0 8 -0.5 14t-0.5 12l-1 278h214v-262q0 -25 4 -40.5t12 -22.5q6 -5 14.5 -7.5t18.5 -2.5q6 0 12.5 1t12.5 2q10 2 20 5t18 6q7 3 12.5 5t9.5 4 v312h222v-333h193v0zM329 528l-29 -68l-208 69l47 111l190 -112v0z" />
<glyph unicode="&#xfa;" horiz-adv-x="704" d="M761 107q0 -44 -32 -75.5t-76 -31.5h-307v14q-31 -10 -63.5 -14t-65.5 -4q-9 0 -18.5 0.5t-19.5 1.5q-62 6 -115 38t-64 100q0 8 -0.5 14t-0.5 12l-1 278h214v-262q0 -25 4 -40.5t12 -22.5q6 -5 14.5 -7.5t18.5 -2.5q6 0 12.5 1t12.5 2q10 2 20 5t18 6q7 3 12.5 5t9.5 4 v312h222v-333h193v0zM476 526l-208 -69l-29 68l190 112l47 -111v0z" />
<glyph unicode="&#xfb;" horiz-adv-x="704" d="M761 107q0 -44 -32 -75.5t-76 -31.5h-307v14q-31 -10 -63.5 -14t-65.5 -4q-9 0 -18.5 0.5t-19.5 1.5q-62 6 -115 38t-64 100q0 8 -0.5 14t-0.5 12l-1 278h214v-262q0 -25 4 -40.5t12 -22.5q6 -5 14.5 -7.5t18.5 -2.5q6 0 12.5 1t12.5 2q10 2 20 5t18 6q7 3 12.5 5t9.5 4 v312h222v-333h193v0zM408 462h-96l-34 25l-33 -25h-95v23l128 112l130 -113v-22v0z" />
<glyph unicode="&#xfc;" horiz-adv-x="704" d="M761 107q0 -44 -32 -75.5t-76 -31.5h-307v14q-31 -10 -63.5 -14t-65.5 -4q-9 0 -18.5 0.5t-19.5 1.5q-62 6 -115 38t-64 100q0 8 -0.5 14t-0.5 12l-1 278h214v-262q0 -25 4 -40.5t12 -22.5q6 -5 14.5 -7.5t18.5 -2.5q6 0 12.5 1t12.5 2q10 2 20 5t18 6q7 3 12.5 5t9.5 4 v312h222v-333h193v0zM267 465h-91v90h91v-90v0zM384 465h-90v90h90v-90v0z" />
<glyph unicode="&#xfd;" horiz-adv-x="222" />
<glyph unicode="&#xfe;" horiz-adv-x="717" d="M770 107q0 -44 -31.5 -75.5t-76.5 -31.5h-449v-228l-214 1v892h214v-232q18 4 36.5 5.5t37.5 1.5h7.5h7.5q47 -2 93 -16.5t85 -42.5q41 -30 65.5 -71.5t24.5 -89.5q0 -31 -10 -59.5t-30 -53.5h240v0zM355 220q0 53 -22.5 82.5t-67.5 29.5q-11 0 -24.5 -2t-27.5 -7v-210 q11 -1 21.5 -2.5t20.5 -1.5q50 1 75 27.5t25 83.5v0z" />
<glyph unicode="&#xff;" horiz-adv-x="742" d="M792 107q-1 -44 -32.5 -75.5t-75.5 -31.5h-127v-61q0 -37 -19.5 -69.5t-53.5 -54.5q-32 -22 -71 -32.5t-80 -10.5q-40 0 -78 11t-70 32q-35 23 -54.5 56.5t-19.5 69.5q0 22 8.5 44t24.5 43q-58 25 -101 75t-43 117v220h213v-54.5v-55.5v-55.5v-54.5q0 -29 5.5 -52 t18.5 -37q11 -13 27 -18.5t33 -5.5h6t6 1q12 1 24 3.5t22 5.5v323h202v-333h235v0zM355 -121v121q-29 0 -57 -3.5t-54 -19.5q-13 -9 -19.5 -18t-5.5 -19q0 -3 0.5 -6t2.5 -6q2 -6 8 -12.5t14 -11.5q15 -11 33 -16.5t36 -7.5q5 0 10.5 -0.5t10.5 -0.5h10.5t10.5 1v-1z M279 462h-91v90h91v-90v0zM396 462h-90v90h90v-90v0z" />
<glyph unicode="&#x152;" horiz-adv-x="952" d="M896 0h-329q-37 0 -70.5 11.5t-61.5 32.5q-33 -21 -71 -32.5t-80 -11.5q-117 0 -200 83t-83 200v100q0 117 83 200.5t200 83.5q50 0 94 -16t81 -45q22 27 55 44t73 17h309v-107h-193q-25 0 -38 -19t-12 -42v-1.5v-1.5q1 -21 13.5 -38.5t36.5 -17.5h193v-107h-193 q-49 0 -74 -35.5t-24 -78.5q0 -42 24.5 -77t73.5 -35h193v-107v0zM343 165v336q0 24 -17.5 41.5t-41.5 17.5t-41 -17.5t-17 -41.5v-336q0 -24 17 -41t41 -17t41.5 17t17.5 41v0z" />
<glyph unicode="&#x153;" horiz-adv-x="1057" d="M1115 107q0 -44 -32 -75.5t-76 -31.5h-335q-56 0 -108 9t-100 39q-36 -22 -77.5 -34t-83.5 -14h-8h-8q-52 0 -102 15t-91 44q-44 32 -67 74.5t-23 87.5v5.5v4.5q3 41 25.5 80.5t64.5 69.5q38 27 87.5 43t105.5 16h389q41 0 77.5 -16.5t66.5 -41.5q37 -31 56.5 -73 t19.5 -89v-31.5v-32.5h-308q11 -25 33 -37t50 -12h444v0zM352 220q0 9 -1.5 22t-5.5 26q-7 24 -21 44.5t-37 20.5q-22 0 -36 -20t-21 -44q-3 -14 -5 -27t-2 -22t1.5 -22t5.5 -26q7 -24 20.5 -44.5t36.5 -20.5h1v0q22 0 36 20t21 44q3 14 5 27t2 22v0zM703 263q-3 15 -7 27.5 t-11 22.5t-18 14.5t-23 5.5h-6q-12 -1 -23 -5.5t-18 -14.5t-11 -22.5t-7 -27.5h124v0z" />
<glyph unicode="&#x178;" horiz-adv-x="624" d="M566 -105q0 -49 -35 -84.5t-85 -35.5l-220 -1v107h116v107q-16 -3 -33 -4.5t-35 -1.5q-9 0 -17.5 0.5t-17.5 1.5q-45 4 -87 18.5t-73 39.5q-37 29 -58 73.5t-21 105.5l-1 446h226v-520q0 -24 17 -41t42 -17q23 0 40.5 16.5t17.5 40.5v521h224v-772v0zM288 672h-91v90h91 v-90v0zM405 672h-90v90h90v-90v0z" />
<glyph unicode="&#x2c6;" horiz-adv-x="310" d="M296 733q0 -4 -0.5 -8.5t-1.5 -9.5q-3 -9 -8 -17t-13 -13t-17 -8t-19 -3q-4 0 -8.5 1t-9.5 2l-139 42v-36h-66v78q0 14 6 27t18 21q8 6 16.5 8.5t17.5 2.5q5 0 10 -0.5t9 -2.5l140 -42v36h65v-78v0z" />
<glyph unicode="&#x2dc;" horiz-adv-x="310" d="M285 684h-96l-34 25l-33 -25h-95v23l128 112l130 -113v-22v0z" />
<glyph unicode="&#x2000;" horiz-adv-x="441" />
<glyph unicode="&#x2001;" horiz-adv-x="882" />
<glyph unicode="&#x2002;" horiz-adv-x="441" />
<glyph unicode="&#x2003;" horiz-adv-x="882" />
<glyph unicode="&#x2004;" horiz-adv-x="294" />
<glyph unicode="&#x2005;" horiz-adv-x="220" />
<glyph unicode="&#x2006;" horiz-adv-x="147" />
<glyph unicode="&#x2007;" horiz-adv-x="147" />
<glyph unicode="&#x2008;" horiz-adv-x="110" />
<glyph unicode="&#x2009;" horiz-adv-x="176" />
<glyph unicode="&#x200a;" horiz-adv-x="49" />
<glyph unicode="&#x2010;" horiz-adv-x="236" d="M226 241h-215v107h215v-107v0z" />
<glyph unicode="&#x2011;" horiz-adv-x="236" d="M226 241h-215v107h215v-107v0z" />
<glyph unicode="&#x2012;" horiz-adv-x="236" d="M226 241h-215v107h215v-107v0z" />
<glyph unicode="&#x2013;" horiz-adv-x="453" d="M444 241h-430v107h430v-107v0z" />
<glyph unicode="&#x2014;" horiz-adv-x="845" d="M859 241h-860v107h860v-107v0z" />
<glyph unicode="&#x2018;" horiz-adv-x="184" d="M5 548q0 9 4 17.5t9 15.5l90 124l59 -80l-23 -31q12 -8 19 -20t7 -26q0 -26 -24 -44.5t-58 -18.5t-58.5 18.5t-24.5 44.5v0z" />
<glyph unicode="&#x2019;" horiz-adv-x="184" d="M171 622q0 -9 -4 -17t-9 -16l-90 -124l-59 80l23 31q-12 8 -19 20.5t-7 25.5q0 26 24 44.5t58 18.5q35 0 59 -18.5t24 -44.5v0z" />
<glyph unicode="&#x201a;" horiz-adv-x="184" d="M171 42q0 -9 -4 -17t-9 -16l-90 -124l-59 80l23 31q-12 8 -19 20.5t-7 25.5q0 26 24 44.5t58 18.5q35 0 59 -18.5t24 -44.5v0z" />
<glyph unicode="&#x201c;" horiz-adv-x="371" d="M171 622q0 -9 -4 -17t-9 -16l-90 -124l-59 80l23 31q-12 8 -19 20.5t-7 25.5q0 26 24 44.5t58 18.5q35 0 59 -18.5t24 -44.5v0zM351 622q0 -9 -4 -17t-9 -16l-90 -124l-59 80l23 31q-12 8 -19 20.5t-7 25.5q0 26 24 44.5t58 18.5q35 0 59 -18.5t24 -44.5v0z" />
<glyph unicode="&#x201d;" horiz-adv-x="361" d="M5 548q0 9 4 17.5t9 15.5l90 124l59 -80l-23 -31q12 -8 19 -20t7 -26q0 -26 -24 -44.5t-58 -18.5t-58.5 18.5t-24.5 44.5v0zM185 548q0 9 4 17.5t9 15.5l90 124l59 -80l-23 -31q12 -8 19 -20t7 -26q0 -26 -24 -44.5t-58 -18.5t-58.5 18.5t-24.5 44.5v0z" />
<glyph unicode="&#x201e;" horiz-adv-x="365" d="M171 32q0 -9 -4 -17t-9 -15l-90 -125l-59 80l23 31q-12 9 -19 21t-7 25q0 26 24 44.5t58 18.5q35 0 59 -18.5t24 -44.5v0zM351 32q0 -9 -4 -17t-9 -15l-90 -125l-59 80l23 31q-12 9 -19 21t-7 25q0 26 24 44.5t58 18.5q35 0 59 -18.5t24 -44.5v0z" />
<glyph unicode="&#x2022;" horiz-adv-x="270" d="M252 294q0 -47 -33.5 -80.5t-80.5 -33.5t-80.5 33.5t-33.5 80.5t33.5 80.5t80.5 33.5t80.5 -33.5t33.5 -80.5v0z" />
<glyph unicode="&#x2026;" horiz-adv-x="512" d="M172 52q0 -26 -20.5 -44.5t-49.5 -18.5t-50 18.5t-21 44.5t21 44.5t50 18.5t49.5 -18.5t20.5 -44.5v0zM337 52q0 -26 -20.5 -44.5t-49.5 -18.5t-50 18.5t-21 44.5t21 44.5t50 18.5t49.5 -18.5t20.5 -44.5v0zM502 52q0 -26 -20.5 -44.5t-49.5 -18.5t-50 18.5t-21 44.5 t21 44.5t50 18.5t49.5 -18.5t20.5 -44.5v0z" />
<glyph unicode="&#x202f;" horiz-adv-x="176" />
<glyph unicode="&#x2039;" horiz-adv-x="292" d="M278 195l-75 -75l-190 189l190 190l75 -76l-113 -114l113 -114v0z" />
<glyph unicode="&#x203a;" horiz-adv-x="292" d="M12 195l113 114l-113 114l75 76l190 -190l-190 -189l-75 75v0z" />
<glyph unicode="&#x205f;" horiz-adv-x="220" />
<glyph unicode="&#x2122;" />
<glyph unicode="&#xe000;" horiz-adv-x="440" d="M0 440h440v-440h-440v440z" />
</font>
</defs>
</svg>
